  0
SECTION
  2
HEADER
  9
$ACADVER
  1
AC1015
  9
$ACADMAINTVER
 70
     6
  9
$DWGCODEPAGE
  3
ANSI_1252
  9
$INSBASE
 10
0.0
 20
0.0
 30
0.0
  9
$EXTMIN
 10
-2.798191327160646
 20
-1.705390817750512
 30
0.0
  9
$EXTMAX
 10
133.2177191556881
 20
110.3393822033576
 30
0.0
  9
$LIMMIN
 10
0.0
 20
0.0
  9
$LIMMAX
 10
12.0
 20
9.0
  9
$ORTHOMODE
 70
     1
  9
$REGENMODE
 70
     1
  9
$FILLMODE
 70
     1
  9
$QTEXTMODE
 70
     0
  9
$MIRRTEXT
 70
     1
  9
$LTSCALE
 40
1.0
  9
$ATTMODE
 70
     1
  9
$TEXTSIZE
 40
0.6291350655187943
  9
$TRACEWID
 40
0.05
  9
$TEXTSTYLE
  7
Standard
  9
$CLAYER
  8
Toolpath25
  9
$CELTYPE
  6
ByLayer
  9
$CECOLOR
 62
   256
  9
$CELTSCALE
 40
0.25
  9
$DISPSILH
 70
     0
  9
$DIMSCALE
 40
0.5
  9
$DIMASZ
 40
0.18
  9
$DIMEXO
 40
0.0625
  9
$DIMDLI
 40
0.38
  9
$DIMRND
 40
0.0
  9
$DIMDLE
 40
0.0
  9
$DIMEXE
 40
0.18
  9
$DIMTP
 40
0.0
  9
$DIMTM
 40
0.0
  9
$DIMTXT
 40
0.18
  9
$DIMCEN
 40
0.09
  9
$DIMTSZ
 40
0.0
  9
$DIMTOL
 70
     0
  9
$DIMLIM
 70
     0
  9
$DIMTIH
 70
     1
  9
$DIMTOH
 70
     1
  9
$DIMSE1
 70
     0
  9
$DIMSE2
 70
     0
  9
$DIMTAD
 70
     0
  9
$DIMZIN
 70
     0
  9
$DIMBLK
  1

  9
$DIMASO
 70
     1
  9
$DIMSHO
 70
     1
  9
$DIMPOST
  1

  9
$DIMAPOST
  1

  9
$DIMALT
 70
     0
  9
$DIMALTD
 70
     2
  9
$DIMALTF
 40
25.4
  9
$DIMLFAC
 40
1.0
  9
$DIMTOFL
 70
     0
  9
$DIMTVP
 40
0.0
  9
$DIMTIX
 70
     0
  9
$DIMSOXD
 70
     0
  9
$DIMSAH
 70
     0
  9
$DIMBLK1
  1

  9
$DIMBLK2
  1

  9
$DIMSTYLE
  2
Standard
  9
$DIMCLRD
 70
     0
  9
$DIMCLRE
 70
     0
  9
$DIMCLRT
 70
     0
  9
$DIMTFAC
 40
1.0
  9
$DIMGAP
 40
0.09
  9
$DIMJUST
 70
     0
  9
$DIMSD1
 70
     0
  9
$DIMSD2
 70
     0
  9
$DIMTOLJ
 70
     1
  9
$DIMTZIN
 70
     0
  9
$DIMALTZ
 70
     0
  9
$DIMALTTZ
 70
     0
  9
$DIMUPT
 70
     0
  9
$DIMDEC
 70
     4
  9
$DIMTDEC
 70
     4
  9
$DIMALTU
 70
     2
  9
$DIMALTTD
 70
     2
  9
$DIMTXSTY
  7
Standard
  9
$DIMAUNIT
 70
     0
  9
$DIMADEC
 70
     0
  9
$DIMALTRND
 40
0.0
  9
$DIMAZIN
 70
     0
  9
$DIMDSEP
 70
    46
  9
$DIMATFIT
 70
     3
  9
$DIMFRAC
 70
     0
  9
$DIMLDRBLK
  1

  9
$DIMLUNIT
 70
     2
  9
$DIMLWD
 70
    -2
  9
$DIMLWE
 70
    -2
  9
$DIMTMOVE
 70
     0
  9
$LUNITS
 70
     2
  9
$LUPREC
 70
     4
  9
$SKETCHINC
 40
0.1
  9
$FILLETRAD
 40
0.0
  9
$AUNITS
 70
     0
  9
$AUPREC
 70
     0
  9
$MENU
  1
.
  9
$ELEVATION
 40
0.0
  9
$PELEVATION
 40
0.0
  9
$THICKNESS
 40
0.0
  9
$LIMCHECK
 70
     0
  9
$CHAMFERA
 40
0.5
  9
$CHAMFERB
 40
0.5
  9
$CHAMFERC
 40
1.0
  9
$CHAMFERD
 40
0.0
  9
$SKPOLY
 70
     0
  9
$TDCREATE
 40
2454608.425797164
  9
$TDUCREATE
 40
2454608.634130497
  9
$TDUPDATE
 40
2455051.505838391
  9
$TDUUPDATE
 40
2455051.714171724
  9
$TDINDWG
 40
10.3463767477
  9
$TDUSRTIMER
 40
10.3463767477
  9
$USRTIMER
 70
     1
  9
$ANGBASE
 50
0.0
  9
$ANGDIR
 70
     0
  9
$PDMODE
 70
     0
  9
$PDSIZE
 40
0.0
  9
$PLINEWID
 40
0.0
  9
$SPLFRAME
 70
     0
  9
$SPLINETYPE
 70
     6
  9
$SPLINESEGS
 70
    32
  9
$HANDSEED
  5
CF
  9
$SURFTAB1
 70
     6
  9
$SURFTAB2
 70
     6
  9
$SURFTYPE
 70
     6
  9
$SURFU
 70
     6
  9
$SURFV
 70
     6
  9
$UCSBASE
  2

  9
$UCSNAME
  2

  9
$UCSORG
 10
0.0
 20
0.0
 30
0.0
  9
$UCSXDIR
 10
1.0
 20
0.0
 30
0.0
  9
$UCSYDIR
 10
0.0
 20
1.0
 30
0.0
  9
$UCSORTHOREF
  2

  9
$UCSORTHOVIEW
 70
     0
  9
$UCSORGTOP
 10
0.0
 20
0.0
 30
0.0
  9
$UCSORGBOTTOM
 10
0.0
 20
0.0
 30
0.0
  9
$UCSORGLEFT
 10
0.0
 20
0.0
 30
0.0
  9
$UCSORGRIGHT
 10
0.0
 20
0.0
 30
0.0
  9
$UCSORGFRONT
 10
0.0
 20
0.0
 30
0.0
  9
$UCSORGBACK
 10
0.0
 20
0.0
 30
0.0
  9
$PUCSBASE
  2

  9
$PUCSNAME
  2

  9
$PUCSORG
 10
0.0
 20
0.0
 30
0.0
  9
$PUCSXDIR
 10
1.0
 20
0.0
 30
0.0
  9
$PUCSYDIR
 10
0.0
 20
1.0
 30
0.0
  9
$PUCSORTHOREF
  2

  9
$PUCSORTHOVIEW
 70
     0
  9
$PUCSORGTOP
 10
0.0
 20
0.0
 30
0.0
  9
$PUCSORGBOTTOM
 10
0.0
 20
0.0
 30
0.0
  9
$PUCSORGLEFT
 10
0.0
 20
0.0
 30
0.0
  9
$PUCSORGRIGHT
 10
0.0
 20
0.0
 30
0.0
  9
$PUCSORGFRONT
 10
0.0
 20
0.0
 30
0.0
  9
$PUCSORGBACK
 10
0.0
 20
0.0
 30
0.0
  9
$USERI1
 70
     0
  9
$USERI2
 70
     0
  9
$USERI3
 70
     0
  9
$USERI4
 70
     0
  9
$USERI5
 70
     0
  9
$USERR1
 40
0.0
  9
$USERR2
 40
0.0
  9
$USERR3
 40
0.0
  9
$USERR4
 40
0.0
  9
$USERR5
 40
0.0
  9
$WORLDVIEW
 70
     1
  9
$SHADEDGE
 70
     3
  9
$SHADEDIF
 70
    70
  9
$TILEMODE
 70
     1
  9
$MAXACTVP
 70
    64
  9
$PINSBASE
 10
0.0
 20
0.0
 30
0.0
  9
$PLIMCHECK
 70
     0
  9
$PEXTMIN
 10
1.000000000000000E+20
 20
1.000000000000000E+20
 30
1.000000000000000E+20
  9
$PEXTMAX
 10
-1.000000000000000E+20
 20
-1.000000000000000E+20
 30
-1.000000000000000E+20
  9
$PLIMMIN
 10
0.0
 20
0.0
  9
$PLIMMAX
 10
12.0
 20
9.0
  9
$UNITMODE
 70
     0
  9
$VISRETAIN
 70
     1
  9
$PLINEGEN
 70
     0
  9
$PSLTSCALE
 70
     1
  9
$TREEDEPTH
 70
  3020
  9
$CMLSTYLE
  2
Standard
  9
$CMLJUST
 70
     0
  9
$CMLSCALE
 40
1.0
  9
$PROXYGRAPHICS
 70
     1
  9
$MEASUREMENT
 70
     0
  9
$CELWEIGHT
370
    -1
  9
$ENDCAPS
280
     0
  9
$JOINSTYLE
280
     0
  9
$LWDISPLAY
290
     0
  9
$INSUNITS
 70
     1
  9
$HYPERLINKBASE
  1

  9
$STYLESHEET
  1

  9
$XEDIT
290
     1
  9
$CEPSNTYPE
380
     0
  9
$PSTYLEMODE
290
     1
  9
$FINGERPRINTGUID
  2
{A355DE12-4A65-41C8-8DD6-09575FDA2434}
  9
$VERSIONGUID
  2
{C318ED16-B31F-4514-BA07-4B0CAE4E5CB0}
  9
$EXTNAMES
290
     1
  9
$PSVPSCALE
 40
0.0
  9
$OLESTARTUP
290
     0
  0
ENDSEC
  0
SECTION
  2
CLASSES
  0
CLASS
  1
ACDBDICTIONARYWDFLT
  2
AcDbDictionaryWithDefault
  3
AutoCAD 2000
 90
        0
280
     0
281
     0
  0
CLASS
  1
ACDBPLACEHOLDER
  2
AcDbPlaceHolder
  3
AutoCAD 2000
 90
        0
280
     0
281
     0
  0
CLASS
  1
LAYOUT
  2
AcDbLayout
  3
AutoCAD 2000
 90
        0
280
     0
281
     0
  0
CLASS
  1
DICTIONARYVAR
  2
AcDbDictionaryVar
  3
AutoCAD 2000
 90
    32768
280
     0
281
     0
  0
ENDSEC
  0
SECTION
  2
TABLES
  0
TABLE
  2
VPORT
  5
19
330
0
100
AcDbSymbolTable
 70
     1
  0
VPORT
  5
1A
330
19
100
AcDbSymbolTableRecord
100
AcDbViewportTableRecord
  2
*Active
 70
     0
 10
0.0
 20
0.0
 11
1.0
 21
1.0
 12
72.36752762261151
 22
19.47978965417031
 13
0.0
 23
0.0
 14
0.5
 24
0.5
 15
0.5
 25
0.5
 16
0.0
 26
0.0
 36
1.0
 17
0.0
 27
0.0
 37
0.0
 40
22.8218723881022
 41
1.549700598802395
 42
50.0
 43
0.0
 44
0.0
 50
0.0
 51
0.0
 71
     0
 72
 10000
 73
     1
 74
     3
 75
     0
 76
     1
 77
     0
 78
     0
281
     0
 65
     1
110
0.0
120
0.0
130
0.0
111
1.0
121
0.0
131
0.0
112
0.0
122
1.0
132
0.0
 79
     0
146
0.0
  0
ENDTAB
  0
TABLE
  2
LTYPE
  5
14
330
0
100
AcDbSymbolTable
 70
     5
  0
LTYPE
  5
15
330
14
100
AcDbSymbolTableRecord
100
AcDbLinetypeTableRecord
  2
ByBlock
 70
     0
  3

 72
    65
 73
     0
 40
0.0
  0
LTYPE
  5
16
330
14
100
AcDbSymbolTableRecord
100
AcDbLinetypeTableRecord
  2
ByLayer
 70
     0
  3

 72
    65
 73
     0
 40
0.0
  0
LTYPE
  5
8
330
14
100
AcDbSymbolTableRecord
100
AcDbLinetypeTableRecord
  2
Continuous
 70
     0
  3
Solid line
 72
    65
 73
     0
 40
0.0
  0
LTYPE
  5
3D
330
14
100
AcDbSymbolTableRecord
100
AcDbLinetypeTableRecord
  2
CENTER2
 70
     0
  3
Center (.5x) ___ _ ___ _ ___ _ ___ _ ___ _ ___
 72
    65
 73
     4
 40
1.125
 49
0.75
 74
     0
 49
-0.125
 74
     0
 49
0.125
 74
     0
 49
-0.125
 74
     0
  0
LTYPE
  5
38
330
14
100
AcDbSymbolTableRecord
100
AcDbLinetypeTableRecord
  2
ACAD_ISO02W100
 70
     0
  3
ISO dash __ __ __ __ __ __ __ __ __ __ __ __ __
 72
    65
 73
     2
 40
15.0
 49
12.0
 74
     0
 49
-3.0
 74
     0
  0
LTYPE
  5
3E
330
14
100
AcDbSymbolTableRecord
100
AcDbLinetypeTableRecord
  2
CENTER
 70
     0
  3
____ _ ____ _ ____ _ ____ _ ____ _ ____ _ ____
 72
    65
 73
     4
 40
0.6
 49
0.375
 74
     0
 49
-0.075
 74
     0
 49
0.075
 74
     0
 49
-0.075
 74
     0
  0
LTYPE
  5
39
330
14
100
AcDbSymbolTableRecord
100
AcDbLinetypeTableRecord
  2
DASHED
 70
     0
  3
- - - - - - - - - - - - - - - - - - - -
 72
    65
 73
     2
 40
0.2
 49
0.1
 74
     0
 49
-0.1
 74
     0
  0
ENDTAB
  0
TABLE
  2
LAYER
  5
10
330
0
100
AcDbSymbolTable
 70
     7
  0
LAYER
  5
4
330
10
100
AcDbSymbolTableRecord
100
AcDbLayerTableRecord
  2
0
 70
     0
 62
     7
  6
Continuous
370
    50
390
5
  0
LAYER
  5
3C
330
10
100
AcDbSymbolTableRecord
100
AcDbLayerTableRecord
  2
centerline
 70
     0
 62
     2
  6
CENTER2
370
    -3
390
5
  0
LAYER
  5
26
330
10
100
AcDbSymbolTableRecord
100
AcDbLayerTableRecord
  2
Dim
 70
     0
 62
   253
  6
Continuous
370
    -3
390
5
  0
LAYER
  5
31
330
10
100
AcDbSymbolTableRecord
100
AcDbLayerTableRecord
  2
Defpoints
 70
     0
 62
     7
  6
Continuous
290
     0
370
    -3
390
5
  0
LAYER
  5
37
330
10
100
AcDbSymbolTableRecord
100
AcDbLayerTableRecord
  2
Ghost
 70
     0
 62
     4
  6
ACAD_ISO02W100
370
    -3
390
5
  0
LAYER
  5
41
330
10
100
AcDbSymbolTableRecord
100
AcDbLayerTableRecord
  2
DEFAULT_1
 70
     0
 62
     7
  6
CENTER
370
    -3
390
5
  0
LAYER
  5
23
330
10
100
AcDbSymbolTableRecord
100
AcDbLayerTableRecord
  2
Toolpath25
 70
     0
 62
     5
  6
Continuous
370
    -3
390
5
  0
ENDTAB
  0
TABLE
  2
STYLE
  5
11
330
0
100
AcDbSymbolTable
 70
     1
  0
STYLE
  5
12
330
11
100
AcDbSymbolTableRecord
100
AcDbTextStyleTableRecord
  2
Standard
 70
     0
 40
0.0
 41
1.0
 50
0.0
 71
     0
 42
0.6291350655187943
  3
txt
  4

  0
ENDTAB
  0
TABLE
  2
VIEW
  5
17
330
0
100
AcDbSymbolTable
 70
     0
  0
ENDTAB
  0
TABLE
  2
UCS
  5
18
330
0
100
AcDbSymbolTable
 70
     0
  0
ENDTAB
  0
TABLE
  2
APPID
  5
1B
330
0
100
AcDbSymbolTable
 70
     1
  0
APPID
  5
1C
330
1B
100
AcDbSymbolTableRecord
100
AcDbRegAppTableRecord
  2
ACAD
 70
     0
  0
ENDTAB
  0
TABLE
  2
DIMSTYLE
  5
1D
330
0
100
AcDbSymbolTable
 70
     1
100
AcDbDimStyleTable
 71
     1
340
1E
  0
DIMSTYLE
105
1E
102
{ACAD_REACTORS
330
56
330
64
330
25
330
B8
330
43
330
A0
330
72
330
82
102
}
330
1D
100
AcDbSymbolTableRecord
100
AcDbDimStyleTableRecord
  2
Standard
 70
     0
340
12
  0
ENDTAB
  0
TABLE
  2
BLOCK_RECORD
  5
1
330
0
100
AcDbSymbolTable
 70
     8
  0
BLOCK_RECORD
  5
2
330
1
100
AcDbSymbolTableRecord
100
AcDbBlockTableRecord
  2
*Model_Space
340
A
  0
BLOCK_RECORD
  5
C
330
1
100
AcDbSymbolTableRecord
100
AcDbBlockTableRecord
  2
*Paper_Space
340
F
  0
BLOCK_RECORD
  5
57
330
1
100
AcDbSymbolTableRecord
100
AcDbBlockTableRecord
  2
*D0
340
0
  0
BLOCK_RECORD
  5
65
330
1
100
AcDbSymbolTableRecord
100
AcDbBlockTableRecord
  2
*D1
340
0
  0
BLOCK_RECORD
  5
27
330
1
100
AcDbSymbolTableRecord
100
AcDbBlockTableRecord
  2
*D2
340
0
  0
BLOCK_RECORD
  5
B9
330
1
100
AcDbSymbolTableRecord
100
AcDbBlockTableRecord
  2
*D3
340
0
  0
BLOCK_RECORD
  5
44
330
1
100
AcDbSymbolTableRecord
100
AcDbBlockTableRecord
  2
*D4
340
0
  0
BLOCK_RECORD
  5
A1
330
1
100
AcDbSymbolTableRecord
100
AcDbBlockTableRecord
  2
*D5
340
0
  0
BLOCK_RECORD
  5
73
330
1
100
AcDbSymbolTableRecord
100
AcDbBlockTableRecord
  2
*D6
340
0
  0
BLOCK_RECORD
  5
83
330
1
100
AcDbSymbolTableRecord
100
AcDbBlockTableRecord
  2
*D7
340
0
  0
ENDTAB
  0
ENDSEC
  0
SECTION
  2
BLOCKS
  0
BLOCK
  5
3
330
2
100
AcDbEntity
  8
0
100
AcDbBlockBegin
  2
*Model_Space
 70
     0
 10
0.0
 20
0.0
 30
0.0
  3
*Model_Space
  1

  0
ENDBLK
  5
9
330
2
100
AcDbEntity
  8
0
100
AcDbBlockEnd
  0
BLOCK
  5
D
330
C
100
AcDbEntity
 67
     1
  8
0
100
AcDbBlockBegin
  2
*Paper_Space
 70
     0
 10
0.0
 20
0.0
 30
0.0
  3
*Paper_Space
  1

  0
ENDBLK
  5
E
330
C
100
AcDbEntity
 67
     1
  8
0
100
AcDbBlockEnd
  0
BLOCK
  5
62
330
57
100
AcDbEntity
  8
0
100
AcDbBlockBegin
  2
*D0
 70
     1
 10
0.0
 20
0.0
 30
0.0
  3
*D0
  1

  0
LINE
  5
58
330
57
100
AcDbEntity
  8
DEFAULT_1
  6
Continuous
 62
     0
370
    -2
100
AcDbLine
 10
67.77471640928649
 20
15.56400520864888
 30
0.0
 11
67.77471640928649
 21
14.2598180840041
 31
0.0
  0
LINE
  5
59
330
57
100
AcDbEntity
  8
DEFAULT_1
  6
Continuous
 62
     0
370
    -2
100
AcDbLine
 10
74.62272845557254
 20
15.88691524793243
 30
0.0
 11
74.62272845557254
 21
14.2598180840041
 31
0.0
  0
LINE
  5
5A
330
57
100
AcDbEntity
  8
DEFAULT_1
  6
Continuous
 62
     0
370
    -2
100
AcDbLine
 10
67.95471640928649
 20
14.4398180840041
 30
0.0
 11
71.80434590229075
 21
14.4398180840041
 31
0.0
  0
LINE
  5
5B
330
57
100
AcDbEntity
  8
DEFAULT_1
  6
Continuous
 62
     0
370
    -2
100
AcDbLine
 10
74.44272845557254
 20
14.4398180840041
 30
0.0
 11
72.85434590229076
 21
14.4398180840041
 31
0.0
  0
SOLID
  5
5C
330
57
100
AcDbEntity
  8
DEFAULT_1
  6
Continuous
 62
     0
100
AcDbTrace
 10
67.95471640928649
 20
14.4698180840041
 30
0.0
 11
67.95471640928649
 21
14.4098180840041
 31
0.0
 12
67.77471640928649
 22
14.4398180840041
 32
0.0
 13
67.77471640928649
 23
14.4398180840041
 33
0.0
  0
SOLID
  5
5D
330
57
100
AcDbEntity
  8
DEFAULT_1
  6
Continuous
 62
     0
100
AcDbTrace
 10
74.44272845557254
 20
14.4698180840041
 30
0.0
 11
74.44272845557254
 21
14.4098180840041
 31
0.0
 12
74.62272845557254
 22
14.4398180840041
 32
0.0
 13
74.62272845557254
 23
14.4398180840041
 33
0.0
  0
MTEXT
  5
5E
330
57
100
AcDbEntity
  8
DEFAULT_1
  6
Continuous
 62
     0
100
AcDbMText
 10
72.32934590229075
 20
14.4398180840041
 30
0.0
 40
0.18
 41
0.0
 71
     5
 72
     1
  1
\A1;6.8480
 73
     1
 44
1.0
  0
POINT
  5
5F
330
57
100
AcDbEntity
  8
Defpoints
  6
Continuous
 62
     0
100
AcDbPoint
 10
67.77471640928649
 20
15.62650520864888
 30
0.0
  0
POINT
  5
60
330
57
100
AcDbEntity
  8
Defpoints
  6
Continuous
 62
     0
100
AcDbPoint
 10
74.62272845557254
 20
15.94941524793243
 30
0.0
  0
POINT
  5
61
330
57
100
AcDbEntity
  8
Defpoints
  6
Continuous
 62
     0
100
AcDbPoint
 10
74.62272845557254
 20
14.4398180840041
 30
0.0
  0
ENDBLK
  5
63
330
57
100
AcDbEntity
  8
0
100
AcDbBlockEnd
  0
BLOCK
  5
70
330
65
100
AcDbEntity
  8
0
100
AcDbBlockBegin
  2
*D1
 70
     1
 10
0.0
 20
0.0
 30
0.0
  3
*D1
  1

  0
LINE
  5
66
330
65
100
AcDbEntity
  8
DEFAULT_1
  6
Continuous
 62
     0
370
    -2
100
AcDbLine
 10
74.23833869179301
 20
19.0075254841529
 30
0.0
 11
66.52494441922115
 21
19.00752548415291
 31
0.0
  0
LINE
  5
67
330
65
100
AcDbEntity
  8
DEFAULT_1
  6
Continuous
 62
     0
370
    -2
100
AcDbLine
 10
74.23833869179301
 20
15.6275254841529
 30
0.0
 11
66.52494441922115
 21
15.6275254841529
 31
0.0
  0
LINE
  5
68
330
65
100
AcDbEntity
  8
DEFAULT_1
  6
Continuous
 62
     0
370
    -2
100
AcDbLine
 10
66.70494441922116
 20
18.82752548415291
 30
0.0
 11
66.70494441922116
 21
17.4975254841529
 31
0.0
  0
LINE
  5
69
330
65
100
AcDbEntity
  8
DEFAULT_1
  6
Continuous
 62
     0
370
    -2
100
AcDbLine
 10
66.70494441922116
 20
15.8075254841529
 30
0.0
 11
66.70494441922116
 21
17.1375254841529
 31
0.0
  0
SOLID
  5
6A
330
65
100
AcDbEntity
  8
DEFAULT_1
  6
Continuous
 62
     0
100
AcDbTrace
 10
66.67494441922116
 20
18.82752548415291
 30
0.0
 11
66.73494441922116
 21
18.82752548415291
 31
0.0
 12
66.70494441922116
 22
19.00752548415291
 32
0.0
 13
66.70494441922116
 23
19.00752548415291
 33
0.0
  0
SOLID
  5
6B
330
65
100
AcDbEntity
  8
DEFAULT_1
  6
Continuous
 62
     0
100
AcDbTrace
 10
66.67494441922116
 20
15.8075254841529
 30
0.0
 11
66.73494441922116
 21
15.8075254841529
 31
0.0
 12
66.70494441922116
 22
15.6275254841529
 32
0.0
 13
66.70494441922116
 23
15.6275254841529
 33
0.0
  0
MTEXT
  5
6C
330
65
100
AcDbEntity
  8
DEFAULT_1
  6
Continuous
 62
     0
100
AcDbMText
 10
66.70494441922116
 20
17.31752548415291
 30
0.0
 40
0.18
 41
0.0
 71
     5
 72
     1
  1
\A1;3.3800
 73
     1
 44
1.0
  0
POINT
  5
6D
330
65
100
AcDbEntity
  8
Defpoints
  6
Continuous
 62
     0
100
AcDbPoint
 10
74.30083869179302
 20
19.0075254841529
 30
0.0
  0
POINT
  5
6E
330
65
100
AcDbEntity
  8
Defpoints
  6
Continuous
 62
     0
100
AcDbPoint
 10
74.30083869179302
 20
15.6275254841529
 30
0.0
  0
POINT
  5
6F
330
65
100
AcDbEntity
  8
Defpoints
  6
Continuous
 62
     0
100
AcDbPoint
 10
66.70494441922116
 20
15.6275254841529
 30
0.0
  0
ENDBLK
  5
71
330
65
100
AcDbEntity
  8
0
100
AcDbBlockEnd
  0
BLOCK
  5
34
330
27
100
AcDbEntity
  8
0
100
AcDbBlockBegin
  2
*D2
 70
     1
 10
0.0
 20
0.0
 30
0.0
  3
*D2
  1

  0
LINE
  5
28
330
27
100
AcDbEntity
  8
Dim
  6
Continuous
 62
     0
370
    -2
100
AcDbLine
 10
74.30083869179302
 20
19.0075254841529
 30
0.0
 11
76.23870414723842
 21
19.0075254841529
 31
0.0
  0
LINE
  5
29
330
27
100
AcDbEntity
  8
Dim
  6
Continuous
 62
     0
370
    -2
100
AcDbLine
 10
75.57032160723082
 20
18.68563572037338
 30
0.0
 11
76.23870414723842
 21
18.68563572037338
 31
0.0
  0
LINE
  5
2A
330
27
100
AcDbEntity
  8
Dim
  6
Continuous
 62
     0
370
    -2
100
AcDbLine
 10
76.05870414723842
 20
19.1875254841529
 30
0.0
 11
76.05870414723842
 21
19.3675254841529
 31
0.0
  0
LINE
  5
2B
330
27
100
AcDbEntity
  8
Dim
  6
Continuous
 62
     0
370
    -2
100
AcDbLine
 10
76.05870414723842
 20
18.50563572037338
 30
0.0
 11
76.05870414723842
 21
18.32563572037338
 31
0.0
  0
LINE
  5
2C
330
27
100
AcDbEntity
  8
Dim
  6
Continuous
 62
     0
370
    -2
100
AcDbLine
 10
76.05870414723842
 20
18.32563572037338
 30
0.0
 11
75.87870414723841
 21
18.32563572037338
 31
0.0
  0
SOLID
  5
2D
330
27
100
AcDbEntity
  8
Dim
  6
Continuous
 62
     0
100
AcDbTrace
 10
76.02870414723842
 20
19.1875254841529
 30
0.0
 11
76.08870414723842
 21
19.1875254841529
 31
0.0
 12
76.05870414723842
 22
19.0075254841529
 32
0.0
 13
76.05870414723842
 23
19.0075254841529
 33
0.0
  0
SOLID
  5
2E
330
27
100
AcDbEntity
  8
Dim
  6
Continuous
 62
     0
100
AcDbTrace
 10
76.02870414723842
 20
18.50563572037338
 30
0.0
 11
76.08870414723842
 21
18.50563572037338
 31
0.0
 12
76.05870414723842
 22
18.68563572037338
 32
0.0
 13
76.05870414723842
 23
18.68563572037338
 33
0.0
  0
MTEXT
  5
2F
330
27
100
AcDbEntity
  8
Dim
  6
Continuous
 62
     0
100
AcDbMText
 10
75.38370414723842
 20
18.32563572037339
 30
0.0
 40
0.18
 41
0.0
 71
     5
 72
     1
  1
\A1;0.3219
 73
     1
 44
1.0
  0
POINT
  5
30
330
27
100
AcDbEntity
  8
Defpoints
  6
Continuous
 62
     0
100
AcDbPoint
 10
74.23833869179301
 20
19.0075254841529
 30
0.0
  0
POINT
  5
32
330
27
100
AcDbEntity
  8
Defpoints
  6
Continuous
 62
     0
100
AcDbPoint
 10
75.50782160723082
 20
18.68563572037338
 30
0.0
  0
POINT
  5
33
330
27
100
AcDbEntity
  8
Defpoints
  6
Continuous
 62
     0
100
AcDbPoint
 10
76.05870414723842
 20
18.68563572037338
 30
0.0
  0
ENDBLK
  5
35
330
27
100
AcDbEntity
  8
0
100
AcDbBlockEnd
  0
BLOCK
  5
C4
330
B9
100
AcDbEntity
  8
0
100
AcDbBlockBegin
  2
*D3
 70
     1
 10
0.0
 20
0.0
 30
0.0
  3
*D3
  1

  0
LINE
  5
BA
330
B9
100
AcDbEntity
  8
Dim
  6
Continuous
 62
     0
370
    -2
100
AcDbLine
 10
75.57032160723082
 20
18.68563572037338
 30
0.0
 11
76.23870414723842
 21
18.68563572037338
 31
0.0
  0
LINE
  5
BB
330
B9
100
AcDbEntity
  8
Dim
  6
Continuous
 62
     0
370
    -2
100
AcDbLine
 10
75.57032160723082
 20
15.94941524793243
 30
0.0
 11
76.23870414723842
 21
15.94941524793243
 31
0.0
  0
LINE
  5
BC
330
B9
100
AcDbEntity
  8
Dim
  6
Continuous
 62
     0
370
    -2
100
AcDbLine
 10
76.05870414723842
 20
18.50563572037338
 30
0.0
 11
76.05870414723842
 21
17.4975254841529
 31
0.0
  0
LINE
  5
BD
330
B9
100
AcDbEntity
  8
Dim
  6
Continuous
 62
     0
370
    -2
100
AcDbLine
 10
76.05870414723842
 20
16.12941524793243
 30
0.0
 11
76.05870414723842
 21
17.13752548415291
 31
0.0
  0
SOLID
  5
BE
330
B9
100
AcDbEntity
  8
Dim
  6
Continuous
 62
     0
100
AcDbTrace
 10
76.02870414723842
 20
18.50563572037338
 30
0.0
 11
76.08870414723842
 21
18.50563572037338
 31
0.0
 12
76.05870414723842
 22
18.68563572037338
 32
0.0
 13
76.05870414723842
 23
18.68563572037338
 33
0.0
  0
SOLID
  5
BF
330
B9
100
AcDbEntity
  8
Dim
  6
Continuous
 62
     0
100
AcDbTrace
 10
76.02870414723842
 20
16.12941524793243
 30
0.0
 11
76.08870414723842
 21
16.12941524793243
 31
0.0
 12
76.05870414723842
 22
15.94941524793243
 32
0.0
 13
76.05870414723842
 23
15.94941524793243
 33
0.0
  0
MTEXT
  5
C0
330
B9
100
AcDbEntity
  8
Dim
  6
Continuous
 62
     0
100
AcDbMText
 10
76.05870414723842
 20
17.31752548415292
 30
0.0
 40
0.18
 41
0.0
 71
     5
 72
     1
  1
\A1;2.7362
 73
     1
 44
1.0
  0
POINT
  5
C1
330
B9
100
AcDbEntity
  8
Defpoints
  6
Continuous
 62
     0
100
AcDbPoint
 10
75.50782160723082
 20
18.68563572037338
 30
0.0
  0
POINT
  5
C2
330
B9
100
AcDbEntity
  8
Defpoints
  6
Continuous
 62
     0
100
AcDbPoint
 10
75.50782160723082
 20
15.94941524793243
 30
0.0
  0
POINT
  5
C3
330
B9
100
AcDbEntity
  8
Defpoints
  6
Continuous
 62
     0
100
AcDbPoint
 10
76.05870414723842
 20
15.94941524793243
 30
0.0
  0
ENDBLK
  5
C5
330
B9
100
AcDbEntity
  8
0
100
AcDbBlockEnd
  0
BLOCK
  5
4F
330
44
100
AcDbEntity
  8
0
100
AcDbBlockBegin
  2
*D4
 70
     1
 10
0.0
 20
0.0
 30
0.0
  3
*D4
  1

  0
LINE
  5
45
330
44
100
AcDbEntity
  8
Dim
  6
Continuous
 62
     0
370
    -2
100
AcDbLine
 10
71.56461821935207
 20
16.77754388054896
 30
0.0
 11
71.56461821935207
 21
14.98216255523174
 31
0.0
  0
LINE
  5
46
330
44
100
AcDbEntity
  8
Dim
  6
Continuous
 62
     0
370
    -2
100
AcDbLine
 10
74.30083869179302
 20
16.77856415605298
 30
0.0
 11
74.30083869179302
 21
14.98216255523174
 31
0.0
  0
LINE
  5
47
330
44
100
AcDbEntity
  8
Dim
  6
Continuous
 62
     0
370
    -2
100
AcDbLine
 10
71.74461821935207
 20
15.16216255523174
 30
0.0
 11
72.39272845557254
 21
15.16216255523174
 31
0.0
  0
LINE
  5
48
330
44
100
AcDbEntity
  8
Dim
  6
Continuous
 62
     0
370
    -2
100
AcDbLine
 10
74.12083869179301
 20
15.16216255523174
 30
0.0
 11
73.47272845557255
 21
15.16216255523174
 31
0.0
  0
SOLID
  5
49
330
44
100
AcDbEntity
  8
Dim
  6
Continuous
 62
     0
100
AcDbTrace
 10
71.74461821935207
 20
15.19216255523174
 30
0.0
 11
71.74461821935207
 21
15.13216255523174
 31
0.0
 12
71.56461821935207
 22
15.16216255523174
 32
0.0
 13
71.56461821935207
 23
15.16216255523174
 33
0.0
  0
SOLID
  5
4A
330
44
100
AcDbEntity
  8
Dim
  6
Continuous
 62
     0
100
AcDbTrace
 10
74.12083869179301
 20
15.19216255523174
 30
0.0
 11
74.12083869179301
 21
15.13216255523174
 31
0.0
 12
74.30083869179302
 22
15.16216255523174
 32
0.0
 13
74.30083869179302
 23
15.16216255523174
 33
0.0
  0
MTEXT
  5
4B
330
44
100
AcDbEntity
  8
Dim
  6
Continuous
 62
     0
100
AcDbMText
 10
72.93272845557254
 20
15.16216255523174
 30
0.0
 40
0.18
 41
0.0
 71
     5
 72
     1
  1
\A1;2.7362
 73
     1
 44
1.0
  0
POINT
  5
4C
330
44
100
AcDbEntity
  8
Defpoints
  6
Continuous
 62
     0
100
AcDbPoint
 10
71.56461821935207
 20
16.84004388054896
 30
0.0
  0
POINT
  5
4D
330
44
100
AcDbEntity
  8
Defpoints
  6
Continuous
 62
     0
100
AcDbPoint
 10
74.30083869179302
 20
16.84106415605298
 30
0.0
  0
POINT
  5
4E
330
44
100
AcDbEntity
  8
Defpoints
  6
Continuous
 62
     0
100
AcDbPoint
 10
74.30083869179302
 20
15.16216255523174
 30
0.0
  0
ENDBLK
  5
50
330
44
100
AcDbEntity
  8
0
100
AcDbBlockEnd
  0
BLOCK
  5
AF
330
A1
100
AcDbEntity
  8
0
100
AcDbBlockBegin
  2
*D5
 70
     1
 10
0.0
 20
0.0
 30
0.0
  3
*D5
  1

  0
LINE
  5
A2
330
A1
100
AcDbEntity
  8
Dim
  6
Continuous
 62
     0
370
    -2
100
AcDbLine
 10
74.30083869179302
 20
15.5650254841529
 30
0.0
 11
74.30083869179302
 21
14.98216255523174
 31
0.0
  0
LINE
  5
A3
330
A1
100
AcDbEntity
  8
Dim
  6
Continuous
 62
     0
370
    -2
100
AcDbLine
 10
74.62272845557254
 20
15.82441524793243
 30
0.0
 11
74.62272845557254
 21
14.98216255523174
 31
0.0
  0
LINE
  5
A4
330
A1
100
AcDbEntity
  8
Dim
  6
Continuous
 62
     0
370
    -2
100
AcDbLine
 10
74.12083869179301
 20
15.16216255523174
 30
0.0
 11
73.94083869179302
 21
15.16216255523174
 31
0.0
  0
LINE
  5
A5
330
A1
100
AcDbEntity
  8
Dim
  6
Continuous
 62
     0
370
    -2
100
AcDbLine
 10
74.80272845557255
 20
15.16216255523174
 30
0.0
 11
74.98272845557254
 21
15.16216255523174
 31
0.0
  0
LINE
  5
A6
330
A1
100
AcDbEntity
  8
Dim
  6
Continuous
 62
     0
370
    -2
100
AcDbLine
 10
74.46178357368278
 20
15.16216255523174
 30
0.0
 11
75.09486996582011
 21
14.6565214695528
 31
0.0
  0
LINE
  5
A7
330
A1
100
AcDbEntity
  8
Dim
  6
Continuous
 62
     0
370
    -2
100
AcDbLine
 10
75.09486996582011
 20
14.6565214695528
 30
0.0
 11
75.27486996582012
 21
14.6565214695528
 31
0.0
  0
MTEXT
  5
A8
330
A1
100
AcDbEntity
  8
Dim
  6
Continuous
 62
     0
100
AcDbMText
 10
75.76986996582011
 20
14.6565214695528
 30
0.0
 40
0.18
 41
0.0
 71
     5
 72
     1
  1
\A1;0.3219
 73
     1
 44
1.0
  0
LINE
  5
A9
330
A1
100
AcDbEntity
  8
Dim
  6
Continuous
 62
     0
370
    -2
100
AcDbLine
 10
74.30083869179302
 20
15.16216255523174
 30
0.0
 11
74.62272845557254
 21
15.16216255523174
 31
0.0
  0
SOLID
  5
AA
330
A1
100
AcDbEntity
  8
Dim
  6
Continuous
 62
     0
100
AcDbTrace
 10
74.12083869179301
 20
15.19216255523174
 30
0.0
 11
74.12083869179301
 21
15.13216255523174
 31
0.0
 12
74.30083869179302
 22
15.16216255523174
 32
0.0
 13
74.30083869179302
 23
15.16216255523174
 33
0.0
  0
SOLID
  5
AB
330
A1
100
AcDbEntity
  8
Dim
  6
Continuous
 62
     0
100
AcDbTrace
 10
74.80272845557255
 20
15.19216255523174
 30
0.0
 11
74.80272845557255
 21
15.13216255523174
 31
0.0
 12
74.62272845557254
 22
15.16216255523174
 32
0.0
 13
74.62272845557254
 23
15.16216255523174
 33
0.0
  0
POINT
  5
AC
330
A1
100
AcDbEntity
  8
Defpoints
  6
Continuous
 62
     0
100
AcDbPoint
 10
74.30083869179302
 20
15.6275254841529
 30
0.0
  0
POINT
  5
AD
330
A1
100
AcDbEntity
  8
Defpoints
  6
Continuous
 62
     0
100
AcDbPoint
 10
74.62272845557254
 20
15.88691524793243
 30
0.0
  0
POINT
  5
AE
330
A1
100
AcDbEntity
  8
Defpoints
  6
Continuous
 62
     0
100
AcDbPoint
 10
74.62272845557254
 20
15.16216255523174
 30
0.0
  0
ENDBLK
  5
B0
330
A1
100
AcDbEntity
  8
0
100
AcDbBlockEnd
  0
BLOCK
  5
7E
330
73
100
AcDbEntity
  8
0
100
AcDbBlockBegin
  2
*D6
 70
     1
 10
0.0
 20
0.0
 30
0.0
  3
*D6
  1

  0
LINE
  5
74
330
73
100
AcDbEntity
  8
Dim
  6
Continuous
 62
     0
370
    -2
100
AcDbLine
 10
67.77471640928649
 20
15.50150520864888
 30
0.0
 11
67.77471640928649
 21
14.95326878521871
 31
0.0
  0
LINE
  5
75
330
73
100
AcDbEntity
  8
Dim
  6
Continuous
 62
     0
370
    -2
100
AcDbLine
 10
68.24630732485016
 20
15.56400520864888
 30
0.0
 11
68.24630732485016
 21
14.95326878521871
 31
0.0
  0
LINE
  5
76
330
73
100
AcDbEntity
  8
Dim
  6
Continuous
 62
     0
370
    -2
100
AcDbLine
 10
68.42630732485017
 20
15.13326878521871
 30
0.0
 11
68.60630732485017
 21
15.13326878521871
 31
0.0
  0
LINE
  5
77
330
73
100
AcDbEntity
  8
Dim
  6
Continuous
 62
     0
370
    -2
100
AcDbLine
 10
67.59471640928648
 20
15.13326878521871
 30
0.0
 11
67.28947186890453
 21
15.13326878521871
 31
0.0
  0
SOLID
  5
78
330
73
100
AcDbEntity
  8
Dim
  6
Continuous
 62
     0
100
AcDbTrace
 10
68.42630732485017
 20
15.16326878521871
 30
0.0
 11
68.42630732485017
 21
15.10326878521872
 31
0.0
 12
68.24630732485016
 22
15.13326878521871
 32
0.0
 13
68.24630732485016
 23
15.13326878521871
 33
0.0
  0
SOLID
  5
79
330
73
100
AcDbEntity
  8
Dim
  6
Continuous
 62
     0
100
AcDbTrace
 10
67.59471640928648
 20
15.16326878521871
 30
0.0
 11
67.59471640928648
 21
15.10326878521872
 31
0.0
 12
67.77471640928649
 22
15.13326878521871
 32
0.0
 13
67.77471640928649
 23
15.13326878521871
 33
0.0
  0
MTEXT
  5
7A
330
73
100
AcDbEntity
  8
Dim
  6
Continuous
 62
     0
100
AcDbMText
 10
66.79447186890453
 20
15.13326878521871
 30
0.0
 40
0.18
 41
0.0
 71
     5
 72
     1
  1
\A1;0.4716
 73
     1
 44
1.0
  0
POINT
  5
7B
330
73
100
AcDbEntity
  8
Defpoints
  6
Continuous
 62
     0
100
AcDbPoint
 10
67.77471640928649
 20
15.56400520864888
 30
0.0
  0
POINT
  5
7C
330
73
100
AcDbEntity
  8
Defpoints
  6
Continuous
 62
     0
100
AcDbPoint
 10
68.24630732485016
 20
15.62650520864887
 30
0.0
  0
POINT
  5
7D
330
73
100
AcDbEntity
  8
Defpoints
  6
Continuous
 62
     0
100
AcDbPoint
 10
68.24630732485016
 20
15.13326878521871
 30
0.0
  0
ENDBLK
  5
7F
330
73
100
AcDbEntity
  8
0
100
AcDbBlockEnd
  0
BLOCK
  5
8E
330
83
100
AcDbEntity
  8
0
100
AcDbBlockBegin
  2
*D7
 70
     1
 10
0.0
 20
0.0
 30
0.0
  3
*D7
  1

  0
LINE
  5
84
330
83
100
AcDbEntity
  8
Dim
  6
Continuous
 62
     0
370
    -2
100
AcDbLine
 10
68.24630732485016
 20
15.50150520864888
 30
0.0
 11
68.24630732485016
 21
14.96771567022523
 31
0.0
  0
LINE
  5
85
330
83
100
AcDbEntity
  8
Dim
  6
Continuous
 62
     0
370
    -2
100
AcDbLine
 10
71.56461821935207
 20
12.99191835064432
 30
0.0
 11
71.56461821935207
 21
15.32771567022523
 31
0.0
  0
LINE
  5
86
330
83
100
AcDbEntity
  8
Dim
  6
Continuous
 62
     0
370
    -2
100
AcDbLine
 10
68.42630732485017
 20
15.14771567022523
 30
0.0
 11
69.43113613368184
 21
15.14771567022523
 31
0.0
  0
LINE
  5
87
330
83
100
AcDbEntity
  8
Dim
  6
Continuous
 62
     0
370
    -2
100
AcDbLine
 10
71.38461821935206
 20
15.14771567022523
 30
0.0
 11
70.45113613368186
 21
15.14771567022523
 31
0.0
  0
SOLID
  5
88
330
83
100
AcDbEntity
  8
Dim
  6
Continuous
 62
     0
100
AcDbTrace
 10
68.42630732485017
 20
15.17771567022523
 30
0.0
 11
68.42630732485017
 21
15.11771567022524
 31
0.0
 12
68.24630732485016
 22
15.14771567022523
 32
0.0
 13
68.24630732485016
 23
15.14771567022523
 33
0.0
  0
SOLID
  5
89
330
83
100
AcDbEntity
  8
Dim
  6
Continuous
 62
     0
100
AcDbTrace
 10
71.38461821935206
 20
15.17771567022523
 30
0.0
 11
71.38461821935206
 21
15.11771567022524
 31
0.0
 12
71.56461821935207
 22
15.14771567022523
 32
0.0
 13
71.56461821935207
 23
15.14771567022523
 33
0.0
  0
MTEXT
  5
8A
330
83
100
AcDbEntity
  8
Dim
  6
Continuous
 62
     0
100
AcDbMText
 10
69.94113613368185
 20
15.14771567022523
 30
0.0
 40
0.18
 41
0.0
 71
     5
 72
     1
  1
\A1;3.3183
 73
     1
 44
1.0
  0
POINT
  5
8B
330
83
100
AcDbEntity
  8
Defpoints
  6
Continuous
 62
     0
100
AcDbPoint
 10
68.24630732485016
 20
15.56400520864888
 30
0.0
  0
POINT
  5
8C
330
83
100
AcDbEntity
  8
Defpoints
  6
Continuous
 62
     0
100
AcDbPoint
 10
71.56461821935207
 20
12.92941835064431
 30
0.0
  0
POINT
  5
8D
330
83
100
AcDbEntity
  8
Defpoints
  6
Continuous
 62
     0
100
AcDbPoint
 10
71.56461821935207
 20
15.14771567022523
 30
0.0
  0
ENDBLK
  5
8F
330
83
100
AcDbEntity
  8
0
100
AcDbBlockEnd
  0
ENDSEC
  0
SECTION
  2
ENTITIES
  0
DIMENSION
  5
25
330
2
100
AcDbEntity
  8
Dim
  6
Continuous
100
AcDbDimension
  2
*D2
 10
76.05870414723842
 20
18.68563572037338
 30
0.0
 11
75.38370414723842
 21
18.32563572037339
 31
0.0
 71
     5
 42
0.3218897637795237
  3
Standard
100
AcDbAlignedDimension
 13
74.23833869179301
 23
19.0075254841529
 33
0.0
 14
75.50782160723082
 24
18.68563572037338
 34
0.0
 50
90.0
100
AcDbRotatedDimension
  0
LINE
  5
36
330
2
100
AcDbEntity
  8
Ghost
  6
DASHED
 48
0.01
100
AcDbLine
 10
69.15271640928648
 20
19.75150520864888
 30
0.0
 11
69.15271640928648
 21
6.618649969474447
 31
0.0
  0
LINE
  5
3A
330
2
100
AcDbEntity
  8
Ghost
  6
DASHED
 48
0.01
100
AcDbLine
 10
62.41386110523201
 20
21.12650520864888
 30
0.0
 11
62.41386110523201
 21
17.10076119387583
 31
0.0
  0
LINE
  5
3B
330
2
100
AcDbEntity
  8
centerline
  6
CENTER
 48
0.01
100
AcDbLine
 10
71.56461821935207
 20
15.31901352591056
 30
0.0
 11
71.56461821935207
 21
19.36029049315143
 31
0.0
  0
LINE
  5
3F
330
2
100
AcDbEntity
  8
Ghost
  6
DASHED
 48
0.01
100
AcDbLine
 10
71.02771640928648
 20
19.75150520864888
 30
0.0
 11
71.02771640928648
 21
-0.7484947913511207
 31
0.0
  0
LWPOLYLINE
  5
40
330
2
100
AcDbEntity
  8
DEFAULT_1
  6
Continuous
 48
0.01
100
AcDbPolyline
 90
        4
 70
     1
 43
0.0
 10
73.35837695327012
 20
17.73613312432182
 10
69.72995391054777
 20
21.42558517666107
 42
1.404180219437863
 10
67.72412196607281
 20
17.3833864058753
 10
72.85681394977209
 20
16.72537179818188
 42
0.7121592984697756
  0
LINE
  5
42
330
2
100
AcDbEntity
  8
centerline
  6
CENTER
 48
0.01
100
AcDbLine
 10
74.30083869179302
 20
15.31901352591056
 30
0.0
 11
74.30083869179302
 21
19.36029049315143
 31
0.0
  0
DIMENSION
  5
43
330
2
100
AcDbEntity
  8
Dim
  6
Continuous
100
AcDbDimension
  2
*D4
 10
74.30083869179302
 20
15.16216255523174
 30
0.0
 11
72.93272845557254
 21
15.16216255523174
 31
0.0
 71
     5
 42
2.736220472440948
  3
Standard
100
AcDbAlignedDimension
 13
71.56461821935207
 23
16.84004388054896
 33
0.0
 14
74.30083869179302
 24
16.84106415605298
 34
0.0
100
AcDbRotatedDimension
1001
ACAD
1000
DSTYLE
1002
{
1070
   279
1070
     1
1002
}
  0
LINE
  5
51
330
2
100
AcDbEntity
  8
Dim
  6
DASHED
 48
0.01
100
AcDbLine
 10
71.49272845557255
 20
19.0075254841529
 30
0.0
 11
74.37272845557254
 21
19.0075254841529
 31
0.0
  0
LINE
  5
52
330
2
100
AcDbEntity
  8
centerline
  6
CENTER
100
AcDbLine
 10
75.50782160723082
 20
18.68563572037338
 30
0.0
 11
70.69244231400645
 21
18.68563572037338
 31
0.0
  0
LINE
  5
53
330
2
100
AcDbEntity
  8
Dim
  6
DASHED
 48
0.01
100
AcDbLine
 10
71.49272845557255
 20
15.6275254841529
 30
0.0
 11
74.37272845557254
 21
15.6275254841529
 31
0.0
  0
LINE
  5
54
330
2
100
AcDbEntity
  8
DEFAULT_1
  6
DASHED
 48
0.01
100
AcDbLine
 10
67.77471640928649
 20
15.62650520864888
 30
0.0
 11
73.78128994929898
 21
15.62650520864888
 31
0.0
  0
LINE
  5
55
330
2
100
AcDbEntity
  8
centerline
  6
CENTER
100
AcDbLine
 10
75.50782160723082
 20
15.94941524793243
 30
0.0
 11
70.69244231400645
 21
15.94941524793243
 31
0.0
  0
DIMENSION
  5
56
330
2
100
AcDbEntity
  8
DEFAULT_1
  6
Continuous
100
AcDbDimension
  2
*D0
 10
74.62272845557254
 20
14.4398180840041
 30
0.0
 11
72.32934590229075
 21
14.4398180840041
 31
0.0
 70
   128
 71
     5
 42
6.848012046286058
  3
Standard
100
AcDbAlignedDimension
 13
67.77471640928649
 23
15.62650520864888
 33
0.0
 14
74.62272845557254
 24
15.94941524793243
 34
0.0
100
AcDbRotatedDimension
  0
DIMENSION
  5
64
330
2
100
AcDbEntity
  8
DEFAULT_1
  6
Continuous
100
AcDbDimension
  2
*D1
 10
66.70494441922116
 20
15.6275254841529
 30
0.0
 11
66.70494441922116
 21
17.31752548415291
 31
0.0
 70
   128
 71
     5
 42
3.380000000000004
  3
Standard
100
AcDbAlignedDimension
 13
74.30083869179302
 23
19.0075254841529
 33
0.0
 14
74.30083869179302
 24
15.6275254841529
 34
0.0
 50
90.0
100
AcDbRotatedDimension
  0
DIMENSION
  5
72
330
2
100
AcDbEntity
  8
Dim
  6
Continuous
100
AcDbDimension
  2
*D6
 10
68.24630732485016
 20
15.13326878521871
 30
0.0
 11
66.79447186890453
 21
15.13326878521871
 31
0.0
 70
   128
 71
     5
 42
0.4715909155636809
  3
Standard
100
AcDbAlignedDimension
 13
67.77471640928649
 23
15.56400520864888
 33
0.0
 14
68.24630732485016
 24
15.62650520864887
 34
0.0
100
AcDbRotatedDimension
  0
LINE
  5
80
330
2
100
AcDbEntity
  8
Ghost
  6
DASHED
 48
0.01
100
AcDbLine
 10
62.41386110523201
 20
17.10076119387583
 30
0.0
 11
67.77471640928649
 21
17.10076119387583
 31
0.0
  0
LINE
  5
81
330
2
100
AcDbEntity
  8
DEFAULT_1
  6
Continuous
100
AcDbLine
 10
66.52494441922117
 20
15.6275254841529
 30
0.0
 11
64.12241159481593
 21
15.6275254841529
 31
0.0
  0
DIMENSION
  5
82
330
2
100
AcDbEntity
  8
Dim
  6
Continuous
100
AcDbDimension
  2
*D7
 10
71.56461821935207
 20
15.14771567022523
 30
0.0
 11
69.94113613368185
 21
15.14771567022523
 31
0.0
 70
   128
 71
     5
 42
3.318310894501905
  3
Standard
100
AcDbAlignedDimension
 13
68.24630732485016
 23
15.56400520864888
 33
0.0
 14
71.56461821935207
 24
12.92941835064431
 34
0.0
100
AcDbRotatedDimension
  0
LINE
  5
90
330
2
100
AcDbEntity
  8
centerline
  6
CENTER
100
AcDbLine
 10
68.24630732485016
 20
19.03581915250067
 30
0.0
 11
68.24630732485016
 21
14.56961785155008
 31
0.0
  0
LINE
  5
91
330
2
100
AcDbEntity
  8
DEFAULT_1
  6
DASHED
 48
0.01
100
AcDbLine
 10
70.67252482068707
 20
19.0075254841529
 30
0.0
 11
69.15271640928648
 21
18.62650520864887
 31
0.0
  0
LINE
  5
92
330
2
100
AcDbEntity
  8
DEFAULT_1
  6
DASHED
 48
0.01
100
AcDbLine
 10
67.77471640928649
 20
15.62650520864888
 30
0.0
 11
67.77471640928649
 21
18.62650520864888
 31
0.0
  0
LINE
  5
93
330
2
100
AcDbEntity
  8
Ghost
  6
DASHED
 48
0.01
100
AcDbLine
 10
69.15271640928648
 20
15.62650520864887
 30
0.0
 11
67.77471640928649
 21
15.62650520864888
 31
0.0
  0
LINE
  5
94
330
2
100
AcDbEntity
  8
centerline
  6
CENTER
100
AcDbLine
 10
69.1876404970301
 20
16.1261269202163
 30
0.0
 11
67.56610076184002
 21
16.1261269202163
 31
0.0
  0
LINE
  5
95
330
2
100
AcDbEntity
  8
Ghost
  6
DASHED
 48
0.01
100
AcDbLine
 10
67.77471640928649
 20
17.10076119387583
 30
0.0
 11
67.77471640928649
 21
15.62650520864888
 31
0.0
  0
CIRCLE
  5
96
330
2
100
AcDbEntity
  8
DEFAULT_1
  6
CENTER
 48
0.01
100
AcDbCircle
 10
68.24630732485016
 20
16.1261269202163
 30
0.0
 40
0.125
  0
LINE
  5
97
330
2
100
AcDbEntity
  8
DEFAULT_1
  6
DASHED
 48
0.01
100
AcDbLine
 10
69.15271640928648
 20
18.62650520864888
 30
0.0
 11
67.77471640928649
 21
18.62650520864888
 31
0.0
  0
LINE
  5
98
330
2
100
AcDbEntity
  8
centerline
  6
CENTER
100
AcDbLine
 10
69.22061301448505
 20
18.10360600072456
 30
0.0
 11
67.59907327929497
 21
18.10360600072456
 31
0.0
  0
CIRCLE
  5
99
330
2
100
AcDbEntity
  8
DEFAULT_1
  6
CENTER
 48
0.01
100
AcDbCircle
 10
68.24630732485016
 20
18.10360600072456
 30
0.0
 40
0.125
  0
LINE
  5
9A
330
2
100
AcDbEntity
  8
Dim
  6
DASHED
 48
0.01
100
AcDbLine
 10
71.24272845557254
 20
18.7575254841529
 30
0.0
 11
71.24272845557254
 21
15.8775254841529
 31
0.0
  0
CIRCLE
  5
9B
330
2
100
AcDbEntity
  8
DEFAULT_1
  6
CENTER
 48
0.01
100
AcDbCircle
 10
71.56461821935207
 20
15.94941524793243
 30
0.0
 40
0.125
  0
ARC
  5
9C
330
2
100
AcDbEntity
  8
Dim
  6
DASHED
 48
0.01
100
AcDbCircle
 10
71.49272845557255
 20
15.8775254841529
 30
0.0
 40
0.25
100
AcDbArc
 50
180.0
 51
270.0
  0
LINE
  5
9D
330
2
100
AcDbEntity
  8
DEFAULT_1
  6
DASHED
 48
0.01
100
AcDbLine
 10
71.49272845557253
 20
19.0075254841529
 30
0.0
 11
70.67252482068707
 21
19.0075254841529
 31
0.0
  0
CIRCLE
  5
9E
330
2
100
AcDbEntity
  8
DEFAULT_1
  6
CENTER
 48
0.01
100
AcDbCircle
 10
71.56461821935207
 20
18.68563572037338
 30
0.0
 40
0.125
  0
ARC
  5
9F
330
2
100
AcDbEntity
  8
Dim
  6
DASHED
 48
0.01
100
AcDbCircle
 10
71.49272845557253
 20
18.7575254841529
 30
0.0
 40
0.25
100
AcDbArc
 50
90.0
 51
180.0
  0
DIMENSION
  5
A0
330
2
100
AcDbEntity
  8
Dim
  6
Continuous
100
AcDbDimension
  2
*D5
 10
74.62272845557254
 20
15.16216255523174
 30
0.0
 11
75.3648699658201
 21
14.6565214695528
 31
0.0
 70
   128
 71
     5
 42
0.3218897637795237
  3
Standard
100
AcDbAlignedDimension
 13
74.30083869179302
 23
15.6275254841529
 33
0.0
 14
74.62272845557254
 24
15.88691524793243
 34
0.0
100
AcDbRotatedDimension
1001
ACAD
1000
DSTYLE
1002
{
1070
   279
1070
     1
1002
}
  0
LINE
  5
B1
330
2
100
AcDbEntity
  8
Dim
  6
DASHED
 48
0.01
100
AcDbLine
 10
74.62272845557254
 20
18.7575254841529
 30
0.0
 11
74.62272845557254
 21
15.8775254841529
 31
0.0
  0
ARC
  5
B2
330
2
100
AcDbEntity
  8
Dim
  6
DASHED
 48
0.01
100
AcDbCircle
 10
74.37272845557254
 20
15.8775254841529
 30
0.0
 40
0.25
100
AcDbArc
 50
270.0
 51
359.9999999999999
  0
CIRCLE
  5
B3
330
2
100
AcDbEntity
  8
DEFAULT_1
  6
CENTER
 48
0.01
100
AcDbCircle
 10
74.30083869179302
 20
15.94941524793243
 30
0.0
 40
0.125
  0
LINE
  5
B4
330
2
100
AcDbEntity
  8
Dim
  6
CENTER
100
AcDbLine
 10
72.93272845557254
 20
17.2275254841529
 30
0.0
 11
72.93272845557254
 21
17.40752548415291
 31
0.0
  0
LINE
  5
B5
330
2
100
AcDbEntity
  8
Dim
  6
CENTER
100
AcDbLine
 10
72.84272845557254
 20
17.31752548415291
 30
0.0
 11
73.02272845557254
 21
17.31752548415291
 31
0.0
  0
ARC
  5
B6
330
2
100
AcDbEntity
  8
Dim
  6
DASHED
 48
0.01
100
AcDbCircle
 10
74.37272845557254
 20
18.7575254841529
 30
0.0
 40
0.25
100
AcDbArc
 50
0.0
 51
90.0
  0
CIRCLE
  5
B7
330
2
100
AcDbEntity
  8
DEFAULT_1
  6
CENTER
 48
0.01
100
AcDbCircle
 10
74.30083869179302
 20
18.68563572037338
 30
0.0
 40
0.125
  0
DIMENSION
  5
B8
330
2
100
AcDbEntity
  8
Dim
  6
Continuous
100
AcDbDimension
  2
*D3
 10
76.05870414723842
 20
15.94941524793243
 30
0.0
 11
76.05870414723842
 21
17.31752548415292
 31
0.0
 71
     5
 42
2.736220472440948
  3
Standard
100
AcDbAlignedDimension
 13
75.50782160723082
 23
18.68563572037338
 33
0.0
 14
75.50782160723082
 24
15.94941524793243
 34
0.0
 50
90.0
100
AcDbRotatedDimension
1001
ACAD
1000
DSTYLE
1002
{
1070
   279
1070
     1
1002
}
  0
LINE
  5
C6
330
2
100
AcDbEntity
  8
centerline
  6
CENTER
100
AcDbLine
 10
84.87429016081884
 20
19.75150520864888
 30
0.0
 11
68.02771640928648
 21
19.75150520864888
 31
0.0
  0
LINE
  5
C7
330
2
100
AcDbEntity
  8
Ghost
  6
DASHED
 48
0.01
100
AcDbLine
 10
62.41386110523201
 20
21.12650520864888
 30
0.0
 11
73.78128994929898
 21
21.12650520864888
 31
0.0
  0
LINE
  5
C8
330
2
100
AcDbEntity
  8
Ghost
  6
Continuous
100
AcDbLine
 10
67.25891036095266
 20
30.08744086816155
 30
0.0
 11
67.25891036095266
 21
21.12650520864888
 31
0.0
  0
LINE
  5
C9
330
2
100
AcDbEntity
  8
Ghost
  6
Continuous
100
AcDbLine
 10
63.22911827454365
 20
21.12650520864888
 30
0.0
 11
63.22911827454365
 21
30.08744086816155
 31
0.0
  0
LINE
  5
CA
330
2
100
AcDbEntity
  8
centerline
  6
CENTER
100
AcDbLine
 10
68.02771640928648
 20
24.21770650959946
 30
0.0
 11
68.02771640928648
 21
19.75150520864888
 31
0.0
  0
LINE
  5
CB
330
2
100
AcDbEntity
  8
DEFAULT_1
  6
Continuous
100
AcDbLine
 10
69.15271640928648
 20
19.75150520864888
 30
0.0
 11
71.02771640928648
 21
19.75150520864888
 31
0.0
  0
CIRCLE
  5
CC
330
2
100
AcDbEntity
  8
DEFAULT_1
  6
DASHED
 48
0.01
100
AcDbCircle
 10
68.02771640928648
 20
19.75150520864888
 30
0.0
 40
0.1875
  0
LINE
  5
CD
330
2
100
AcDbEntity
  8
Dim
  6
CENTER
100
AcDbLine
 10
67.93771640928648
 20
19.75150520864888
 30
0.0
 11
68.11771640928649
 21
19.75150520864888
 31
0.0
  0
LINE
  5
CE
330
2
100
AcDbEntity
  8
Dim
  6
CENTER
100
AcDbLine
 10
68.02771640928648
 20
19.66150520864887
 30
0.0
 11
68.02771640928648
 21
19.84150520864887
 31
0.0
  0
ENDSEC
  0
SECTION
  2
OBJECTS
  0
DICTIONARY
  5
7
330
0
100
AcDbDictionary
281
     1
  3
ACAD_GROUP
350
20
  3
ACAD_LAYOUT
350
B
  3
ACAD_MLINESTYLE
350
21
  3
ACAD_PLOTSETTINGS
350
22
  3
ACAD_PLOTSTYLENAME
350
6
  0
DICTIONARY
  5
20
102
{ACAD_REACTORS
330
7
102
}
330
7
100
AcDbDictionary
281
     1
  0
DICTIONARY
  5
B
102
{ACAD_REACTORS
330
7
102
}
330
7
100
AcDbDictionary
281
     1
  3
Layout1
350
F
  3
Model
350
A
  0
DICTIONARY
  5
21
102
{ACAD_REACTORS
330
7
102
}
330
7
100
AcDbDictionary
281
     1
  3
Standard
350
24
  0
DICTIONARY
  5
22
102
{ACAD_REACTORS
330
7
102
}
330
7
100
AcDbDictionary
281
     1
  0
ACDBDICTIONARYWDFLT
  5
6
102
{ACAD_REACTORS
330
7
102
}
330
7
100
AcDbDictionary
281
     1
  3
Normal
350
5
100
AcDbDictionaryWithDefault
340
5
  0
LAYOUT
  5
F
102
{ACAD_REACTORS
330
B
102
}
330
B
100
AcDbPlotSettings
  1

  2
EPSON Stylus Photo 900
  4

  6

 40
0.0
 41
0.0
 42
0.0
 43
0.0
 44
0.0
 45
0.0
 46
0.0
 47
0.0
 48
0.0
 49
0.0
140
0.0
141
0.0
142
1.0
143
1.0
 70
   688
 72
     0
 73
     0
 74
     5
  7

 75
    16
147
1.0
148
0.0
149
0.0
100
AcDbLayout
  1
Layout1
 70
     1
 71
     1
 10
0.0
 20
0.0
 11
12.0
 21
9.0
 12
0.0
 22
0.0
 32
0.0
 14
1.000000000000000E+20
 24
1.000000000000000E+20
 34
1.000000000000000E+20
 15
-1.000000000000000E+20
 25
-1.000000000000000E+20
 35
-1.000000000000000E+20
146
0.0
 13
0.0
 23
0.0
 33
0.0
 16
1.0
 26
0.0
 36
0.0
 17
0.0
 27
1.0
 37
0.0
 76
     0
330
C
  0
LAYOUT
  5
A
102
{ACAD_REACTORS
330
B
102
}
330
B
100
AcDbPlotSettings
  1

  2
HP Officejet J5700 Series
  4
User140
  6

 40
3.174999952316284
 41
3.174999952316284
 42
3.175003051757812
 43
3.17498779296875
 44
215.9000091552734
 45
279.3999938964843
 46
0.0
 47
0.0
 48
0.0
 49
0.0
140
0.0
141
0.0
142
1.0
143
1.0
 70
 28336
 72
     0
 73
     1
 74
     0
  7

 75
    16
147
1.0
148
-1025.655277180133
149
-1460.141468181266
100
AcDbLayout
  1
Model
 70
     1
 71
     0
 10
0.0
 20
0.0
 11
12.0
 21
9.0
 12
0.0
 22
0.0
 32
0.0
 14
0.0
 24
0.0
 34
0.0
 15
0.0
 25
0.0
 35
0.0
146
0.0
 13
0.0
 23
0.0
 33
0.0
 16
1.0
 26
0.0
 36
0.0
 17
0.0
 27
1.0
 37
0.0
 76
     0
330
2
  0
MLINESTYLE
  5
24
102
{ACAD_REACTORS
330
21
102
}
330
21
100
AcDbMlineStyle
  2
STANDARD
 70
     0
  3

 62
   256
 51
90.0
 52
90.0
 71
     2
 49
0.5
 62
   256
  6
BYLAYER
 49
-0.5
 62
   256
  6
BYLAYER
  0
ACDBPLACEHOLDER
  5
5
102
{ACAD_REACTORS
330
6
102
}
330
6
  0
ENDSEC
  0
EOF
